<?xml version="1.0" standalone="no" ?>
<!DOCTYPE svg PUBLIC "-//W3C//DTD SVG 1.1//EN" "http://www.w3.org/Graphics/SVG/1.1/DTD/svg11.dtd">
<svg xmlns="http://www.w3.org/2000/svg" xmlns:xlink="http://www.w3.org/1999/xlink" version="1.1">
<metadata>
Created by FontForge 20170731 at Mon Oct 11 12:32:37 2021
 By Aleksey,,,
Braiins s.r.o.
</metadata>
<defs>
<font id="BraiinsDisplay-Grade1" horiz-adv-x="1331">
  <font-face
                font-family="Braiins Display Grade 1"
                font-weight="200"
                font-stretch="normal"
                units-per-em="2048"
                panose-1="0 0 3 0 0 0 0 0 0 0"
                ascent="1638"
                descent="-410"
                x-height="1434"
                cap-height="1075"
                bbox="20 -410 2982 1638"
                underline-thickness="102"
                underline-position="-307"
                unicode-range="U+000D-2B11"
            />
<missing-glyph horiz-adv-x="966" d="M66 1597h835v-1597h-835v1597zM696 205v1188h-426v-1188h426z" />
    <glyph glyph-name=".notdef" horiz-adv-x="966" d="M66 1597h835v-1597h-835v1597zM696 205v1188h-426v-1188h426z" />
    <glyph glyph-name=".null" horiz-adv-x="0" />
    <glyph glyph-name="nonmarkingreturn" horiz-adv-x="682" />
    <glyph glyph-name="CR" unicode="&#xd;" horiz-adv-x="483" />
    <glyph glyph-name="space" unicode=" " horiz-adv-x="1024" />
    <glyph
                glyph-name="exclam"
                unicode="!"
                horiz-adv-x="811"
                d="M342 455l-96 477v502h319v-502l-94 -477h-129zM582 154q0 -74 -50 -124t-124 -50t-124.5 50.5t-50.5 123.5q0 72 51 123t124 51t123.5 -51t50.5 -123z"
            />
    <glyph
                glyph-name="quotedbl"
                unicode="&#x22;"
                horiz-adv-x="1009"
                d="M139 848v668h271v-668h-271zM600 848v668h270v-668h-270z"
            />
    <glyph
                glyph-name="numbersign"
                unicode="#"
                horiz-adv-x="1454"
                d="M807 354h-283l-61 -354h-215l61 354h-207v185h240l59 352h-206v184h239l62 355h213l-62 -355h283l61 355h215l-61 -355h207v-184h-240l-59 -352h207v-185h-240l-62 -354h-213zM838 539l61 352h-283l-61 -352h283z"
            />
    <glyph
                glyph-name="dollar"
                unicode="$"
                horiz-adv-x="1787"
                d="M1126 860q172 -5 294 -131t122 -299q0 -178 -126 -304t-304 -126h-82v-205h-225v205h-295l-264 188l166 234l190 -135h203v286h-70q-178 0 -304 126t-126 305q0 177 126 303.5t304 126.5h70v204h225v-204h371v-287h-371v-287h96zM735 860h70v287h-70q-60 0 -101.5 -42
t-41.5 -101q0 -60 41.5 -102t101.5 -42zM1112 287q60 0 101.5 41.5t41.5 101.5q0 59 -41.5 101t-101.5 42h-82v-286h82z"
            />
    <glyph
                glyph-name="percent"
                unicode="%"
                horiz-adv-x="2349"
                d="M651 643q-167 0 -286 119.5t-119 286.5t118 285t285 120q168 -2 287 -120t119 -285t-118.5 -286.5t-285.5 -119.5zM2058 1178h-258l-1095 -1178h-412v258h270l1084 1176h411v-256zM651 1186q-59 0 -98 -39t-39 -98q0 -57 39.5 -97.5t97.5 -40.5q57 0 96 40.5t39 97.5
q0 58 -39 97.5t-96 39.5zM1698 791q168 -2 286.5 -120.5t118.5 -285.5t-118 -286t-285 -119t-286.5 119t-119.5 286t118.5 285.5t285.5 120.5zM1700 248q57 0 96 40t39 97q0 58 -39 97.5t-96 39.5q-58 0 -97.5 -39t-39.5 -98q0 -57 39.5 -97t97.5 -40z"
            />
    <glyph
                glyph-name="ampersand"
                unicode="&#x26;"
                horiz-adv-x="1712"
                d="M1466 762v-242l-182 -170l182 -196v-154h-223l-151 172l-78 -74q-128 -125 -309 -125q-189 0 -324 133t-135 320q1 138 76 250.5t196 165.5q-49 69 -69 123q-21 58 -21 100q0 165 118 267t292 102h215l241 -277l-192 -170l-166 189h-98q-64 0 -102 -33.5t-38 -93.5
q0 -33 15.5 -67t30.5 -52l16 -17l352 -378l84 75v152h270zM842 281l86 79l-238 271q-82 -6 -135.5 -63t-54.5 -142q0 -84 58.5 -142.5t146.5 -58.5q81 0 137 56z"
            />
    <glyph glyph-name="quotesingle" unicode="'" horiz-adv-x="548" d="M139 848v668h271v-668h-271z" />
    <glyph
                glyph-name="parenleft"
                unicode="("
                horiz-adv-x="692"
                d="M385 1157v-1046l236 -273l-205 -172l-297 334v1268l297 334l205 -172z"
            />
    <glyph
                glyph-name="parenright"
                unicode=")"
                horiz-adv-x="692"
                d="M276 1602l297 -334v-1268l-297 -334l-204 172l235 273v1046l-235 273z"
            />
    <glyph
                glyph-name="asterisk"
                unicode="*"
                horiz-adv-x="1648"
                d="M616 520l-200 133l200 279l-309 123l76 219l317 -115v338h248v-338l318 115l75 -219l-311 -123l201 -279l-201 -133l-207 293z"
            />
    <glyph
                glyph-name="plus"
                unicode="+"
                horiz-adv-x="1445"
                d="M592 129v377h-346v242h346v376h262v-376h346v-242h-346v-377h-262z"
            />
    <glyph
                glyph-name="comma"
                unicode=","
                horiz-adv-x="636"
                d="M193 403l286 3v-232l-65 -217v-186h-285v229l64 217v186z"
            />
    <glyph glyph-name="hyphen" unicode="-" horiz-adv-x="825" d="M109 477v295h608v-295h-608z" />
    <glyph
                glyph-name="period"
                unicode="."
                horiz-adv-x="634"
                d="M492 164q0 -73 -50.5 -123.5t-124.5 -50.5q-73 0 -123.5 50t-50.5 124q0 72 50.5 123t123.5 51t124 -51t51 -123z"
            />
    <glyph
                glyph-name="slash"
                unicode="/"
                horiz-adv-x="897"
                d="M860 1516v-308l-573 -1261v-256h-267v309l574 1257v259h266z"
            />
    <glyph
                glyph-name="zero"
                unicode="0"
                horiz-adv-x="1638"
                d="M819 1462q156 0 288 -77t209 -209t77 -287v-344q0 -156 -77 -288t-209 -209t-288 -77q-155 0 -287 77t-209 209t-77 288v344q0 155 77 287t209 209t287 77zM819 258q120 0 203.5 83.5t83.5 203.5v344q0 119 -83.5 203t-203.5 84q-119 0 -203 -84t-84 -203v-344
q0 -120 84 -203.5t203 -83.5z"
            />
    <glyph
                glyph-name="one"
                unicode="1"
                horiz-adv-x="1523"
                d="M1018 287h383v-287h-1125v287h455v860h-108l-183 -209l-215 188l269 308h524v-1147z"
            />
    <glyph
                glyph-name="two"
                unicode="2"
                horiz-adv-x="1636"
                d="M1391 0v287h-766l536 295q106 61 167 167t61 228q0 189 -133 323t-322 134h-420l-268 -308l215 -188l184 209h289q69 0 118.5 -50.5t49.5 -119.5q0 -45 -22 -84.5t-60 -61.5l-729 -403v-428h1100z"
            />
    <glyph
                glyph-name="three"
                unicode="3"
                horiz-adv-x="1613"
                d="M932 0q189 0 323 133t134 322q0 151 -90 271t-230 165l223 235v308h-981v-287h604l-292 -311v-211h309q70 0 120 -49.5t50 -120.5q0 -69 -50 -118.5t-120 -49.5h-371l-188 133l-168 -232l264 -188h463z"
            />
    <glyph
                glyph-name="four"
                unicode="4"
                horiz-adv-x="1792"
                d="M1239 0v291h309l183 254l-232 168l-98 -135h-162v856h-604l-430 -801v-342h747v-291h287zM502 578l305 569h145v-569h-450z"
            />
    <glyph
                glyph-name="five"
                unicode="5"
                horiz-adv-x="1673"
                d="M971 0q189 0 322.5 133t133.5 322t-133.5 322.5t-322.5 133.5h-299v236h612v287h-899v-809h586q71 0 120.5 -49.5t49.5 -120.5q0 -69 -50 -118.5t-120 -49.5h-371l-188 133l-166 -232l262 -188h463z"
            />
    <glyph
                glyph-name="six"
                unicode="6"
                horiz-adv-x="1638"
                d="M938 0h-236q-189 0 -322.5 133t-133.5 322q0 125 65 233l404 746h325l-282 -523h180q123 0 228 -61t166 -166t61 -229q0 -93 -36 -177t-97.5 -145t-145.5 -97t-176 -36zM702 287h236q69 0 118.5 49.5t49.5 118.5q0 70 -49.5 120t-118.5 50h-236q-70 0 -120 -49.5
t-50 -120.5q0 -69 50 -118.5t120 -49.5z"
            />
    <glyph
                glyph-name="seven"
                unicode="7"
                horiz-adv-x="1593"
                d="M918 0v305l430 776v353h-1102v-529h282v240h527l-426 -766v-379h289z"
            />
    <glyph
                glyph-name="eight"
                unicode="8"
                horiz-adv-x="1638"
                d="M1241 774q72 -63 112 -149.5t40 -184.5q0 -183 -129 -311.5t-312 -128.5h-264q-183 0 -312.5 128.5t-129.5 311.5q0 98 40.5 184.5t112.5 149.5q-77 107 -77 240q0 173 122.5 296.5t294.5 123.5h162q172 0 295 -123.5t123 -296.5q0 -132 -78 -240zM739 1147
q-54 0 -92.5 -39t-38.5 -94q0 -54 38.5 -92.5t92.5 -38.5h162q54 0 92.5 38.5t38.5 92.5q0 55 -38.5 94t-92.5 39h-162zM952 287q63 0 108.5 45t45.5 108q0 64 -45.5 110t-108.5 46h-264q-64 0 -110 -46t-46 -110q0 -63 46 -108t110 -45h264z"
            />
    <glyph
                glyph-name="nine"
                unicode="9"
                horiz-adv-x="1638"
                d="M702 1434h236q189 0 322 -134t133 -323q0 -128 -64 -234l-403 -743h-326l283 520h-181q-189 0 -322.5 134t-133.5 323t133.5 323t322.5 134zM938 1147h-236q-69 0 -119.5 -50.5t-50.5 -119.5q0 -70 50.5 -120t119.5 -50h236q69 0 118.5 50t49.5 120q0 69 -49.5 119.5
t-118.5 50.5z"
            />
    <glyph
                glyph-name="colon"
                unicode=":"
                horiz-adv-x="675"
                d="M512 915q0 -73 -50 -123.5t-124 -50.5t-124 50.5t-50 123.5q0 72 50.5 123.5t123.5 51.5t123.5 -51.5t50.5 -123.5zM512 164q0 -74 -50 -124t-124 -50t-124 50t-50 124q0 72 50.5 123t123.5 51t123.5 -51t50.5 -123z"
            />
    <glyph
                glyph-name="semicolon"
                unicode=";"
                horiz-adv-x="675"
                d="M512 915q0 -73 -50 -123.5t-124 -50.5t-124 50.5t-50 123.5q0 72 50.5 123.5t123.5 51.5t123.5 -51.5t50.5 -123.5zM213 403l287 3v-232l-66 -217v-186h-284v229l63 217v186z"
            />
    <glyph
                glyph-name="less"
                unicode="&#x3c;"
                horiz-adv-x="1286"
                d="M1040 1288h-327l-467 -502v-284l467 -502h327v264h-231l-344 379l344 379h231v266z"
            />
    <glyph
                glyph-name="equal"
                unicode="="
                horiz-adv-x="1445"
                d="M246 741v242h954v-242h-954zM246 266v242h954v-242h-954z"
            />
    <glyph
                glyph-name="greater"
                unicode="&#x3e;"
                horiz-adv-x="1286"
                d="M246 1288v-266h231l344 -379l-344 -379h-231v-264h327l467 502v284l-467 502h-327z"
            />
    <glyph
                glyph-name="question"
                unicode="?"
                horiz-adv-x="1187"
                d="M850 614q106 61 166.5 163t60.5 216q0 188 -132 314.5t-322 126.5h-273l-268 -308l215 -188l184 209h142q70 0 119 -43t49 -111q0 -92 -82 -139l-318 -170l115 -244zM723 154q0 -74 -50.5 -124t-123.5 -50t-123.5 50t-50.5 124q0 72 50.5 123t123.5 51t123.5 -51
t50.5 -123z"
            />
    <glyph
                glyph-name="at"
                unicode="@"
                horiz-adv-x="2177"
                d="M1763 186l168 -186l-282 -266h-1106l-297 334v1032l297 334h1054l297 -334v-420l-462 -432q-128 -125 -310 -125q-189 0 -323.5 132.5t-134.5 319.5q1 124 63 229t167 166t228 62q187 0 322 -135l-184 -172q-53 53 -138 53q-88 -2 -145.5 -58.5t-58.5 -144.5
q0 -84 58 -142t146 -58q83 0 138 55l368 344v215l-153 178h-809l-154 -178v-811l154 -178h899z"
            />
    <glyph glyph-name="A" unicode="A" horiz-adv-x="1290" d="M983 471v-113h-676v113l215 604h248z" />
    <glyph
                glyph-name="B"
                unicode="B"
                horiz-adv-x="1228"
                d="M889 674q33 -44 33 -111q0 -39 -13 -80q-15 -38 -39 -65q-31 -31 -59 -43q-43 -17 -74 -17h-430v717h398q90 0 139 -49q51 -51 51 -135q0 -59 -25 -98q-23 -39 -63 -54v-6q49 -18 82 -59z"
            />
    <glyph
                glyph-name="C"
                unicode="C"
                horiz-adv-x="1249"
                d="M942 358h-276q-149 0 -254 105t-105 254t105 253.5t254 104.5h276v-717z"
            />
    <glyph
                glyph-name="D"
                unicode="D"
                horiz-adv-x="1249"
                d="M307 358v717h277q149 0 253.5 -104.5t104.5 -253.5t-104.5 -254t-253.5 -105h-277z"
            />
    <glyph glyph-name="E" unicode="E" d="M1024 948l-111 -84v-295l111 -84v-127l-717 2v715h717v-127z" />
    <glyph glyph-name="F" unicode="F" d="M913 1075h111v-127l-111 -84v-127l-110 -84v-295l-496 2v715h496v-2h110v2z" />
    <glyph
                glyph-name="G"
                unicode="G"
                horiz-adv-x="1359"
                d="M864 850h189v-225q-31 -125 -133 -206t-234 -81q-157 0 -268 111t-111 268t111 268t268 111v-357h94z"
            />
    <glyph glyph-name="H" unicode="H" d="M850 1075h174v-717h-176l-78 101h-211l-78 -101h-174v717h174l78 -100h211z" />
    <glyph glyph-name="I" unicode="I" horiz-adv-x="1177" d="M764 1075v-112l147 -471v-134h-497v111l-148 471v135h498z" />
    <glyph
                glyph-name="J"
                unicode="J"
                d="M666 1075h358v-358q0 -149 -104.5 -254t-253.5 -105q-77 0 -145 32.5t-113.5 84t-72 115.5t-28.5 127h359v358z"
            />
    <glyph glyph-name="K" unicode="K" d="M1024 901l-227 -180v-10l227 -179v-174h-717v717h717v-174z" />
    <glyph glyph-name="L" unicode="L" d="M307 358v717h359v-358h358v-359h-717z" />
    <glyph glyph-name="M" unicode="M" d="M481 1075l181 -227h10l178 227h174v-717h-717v717h174z" />
    <glyph glyph-name="N" unicode="N" d="M1022 967l2 -498v-111h-319l-84 111h-314v606h320l84 -108h311z" />
    <glyph
                glyph-name="O"
                unicode="O"
                horiz-adv-x="1269"
                d="M1004 717q0 -154 -107.5 -261.5t-261.5 -107.5t-261.5 107.5t-107.5 261.5t107.5 261t261.5 107t261.5 -107t107.5 -261z"
            />
    <glyph
                glyph-name="P"
                unicode="P"
                d="M721 1075q126 0 214.5 -88.5t88.5 -214.5q0 -125 -88.5 -214t-214.5 -89h-55v-111h-359v717h414z"
            />
    <glyph
                glyph-name="Q"
                unicode="Q"
                horiz-adv-x="1394"
                d="M1016 573l71 -55v-170h-411q-152 0 -260.5 108.5t-108.5 260.5q0 153 108 260.5t261 107.5t260.5 -107.5t107.5 -260.5q0 -77 -28 -144z"
            />
    <glyph
                glyph-name="R"
                unicode="R"
                d="M1024 801q0 -59 -25 -112t-67 -91l92 -70v-170h-717v715h174v2h271h6h12q105 -8 179.5 -87.5t74.5 -186.5z"
            />
    <glyph
                glyph-name="S"
                unicode="S"
                d="M807 791q89 0 153 -63.5t64 -154.5q0 -89 -64 -152t-153 -63h-311q-61 0 -111 30.5t-78 82.5l234 188q-1 0 -3 -1t-3 -1q-86 0 -147.5 61.5t-61.5 147.5t61.5 147.5t147.5 61.5h280q53 0 98.5 -25t75.5 -69l-203 -193q9 3 21 3z"
            />
    <glyph glyph-name="T" unicode="T" d="M913 1075h111v-289l-111 -84v-344h-495v344l-111 84v289l606 -2v2z" />
    <glyph
                glyph-name="U"
                unicode="U"
                d="M1024 1075v-366q0 -148 -105 -253.5t-253 -105.5t-253.5 105.5t-105.5 253.5v366h717z"
            />
    <glyph glyph-name="V" unicode="V" d="M307 963v112h717v-112l-215 -605h-289z" />
    <glyph
                glyph-name="W"
                unicode="W"
                horiz-adv-x="1519"
                d="M596 358h-174l-115 605v112h905v-112l-114 -605h-174l-160 191h-10z"
            />
    <glyph
                glyph-name="X"
                unicode="X"
                horiz-adv-x="1349"
                d="M1042 891l-227 -180v-11l227 -178v-174h-735v174l228 178v11l-228 180v174h735v-174z"
            />
    <glyph glyph-name="Y" unicode="Y" d="M307 963v112h717v-112l-215 -383v-222h-289v222z" />
    <glyph glyph-name="Z" unicode="Z" d="M1024 1075v-319l-109 -84v-312l-608 -2v320l111 84v313h606z" />
    <glyph
                glyph-name="bracketleft"
                unicode="["
                horiz-adv-x="669"
                d="M158 -283v1839h409v-245h-143v-1348h143v-246h-409z"
            />
    <glyph
                glyph-name="backslash"
                unicode="\"
                horiz-adv-x="897"
                d="M37 1516h266v-259l574 -1257v-309h-267v256l-573 1261v308z"
            />
    <glyph
                glyph-name="bracketright"
                unicode="]"
                horiz-adv-x="669"
                d="M512 1556v-1839h-410v246h144v1348h-144v245h410z"
            />
    <glyph
                glyph-name="asciicircum"
                unicode="^"
                horiz-adv-x="1550"
                d="M1061 567l-287 533h-12l-287 -533l-229 117l409 746h246l404 -746z"
            />
    <glyph glyph-name="underscore" unicode="_" horiz-adv-x="1138" d="M61 -389v252h1016v-252h-1016z" />
    <glyph
                glyph-name="a"
                unicode="a"
                horiz-adv-x="1748"
                d="M1028 1434l516 -1078v-356h-287v293h-765v-293h-287v356l516 1078h307zM616 559h517l-259 547z"
            />
    <glyph
                glyph-name="b"
                unicode="b"
                horiz-adv-x="1931"
                d="M1460 831q103 -58 164.5 -161t61.5 -226q0 -184 -130 -314t-315 -130h-799v1147h-237v287h895q167 -5 285 -126t118 -290q0 -96 -43 -187zM731 1147v-258h359q53 0 90 37.5t37 91.5t-37 91.5t-90 37.5h-359zM1241 287q66 0 112 46t46 111q0 66 -46 112t-112 46h-510v-315
h510z"
            />
    <glyph
                glyph-name="c"
                unicode="c"
                horiz-adv-x="1751"
                d="M1102 287l252 227l192 -213l-334 -301h-290q-145 0 -278 57t-229 153t-153 229t-57 278t57 278t153 229t229 153t278 57h290l334 -301l-192 -213l-252 227h-180q-178 0 -304 -126.5t-126 -303.5q0 -179 126 -304.5t304 -125.5h180z"
            />
    <glyph
                glyph-name="d"
                unicode="d"
                horiz-adv-x="1951"
                d="M989 1434q145 0 278 -57t229 -153t153 -229t57 -278t-57 -278t-153 -229t-229 -153t-278 -57h-526v1147h-240v287h766zM989 287q117 0 216 57.5t156.5 156.5t57.5 216q0 177 -126 303.5t-304 126.5h-239v-860h239z"
            />
    <glyph
                glyph-name="e"
                unicode="e"
                horiz-adv-x="1648"
                d="M1403 1147h-871v-287h732v-287h-732v-286h871v-287h-1157v1434h1157v-287z"
            />
    <glyph
                glyph-name="f"
                unicode="f"
                horiz-adv-x="1591"
                d="M532 1147v-252h685v-287h-685v-608h-286v1434h1100v-287h-814z"
            />
    <glyph
                glyph-name="g"
                unicode="g"
                horiz-adv-x="1921"
                d="M1716 690v-287h-229v-403h-524q-145 0 -278 57t-229 153t-153 229t-57 278t57 278t153 229t229 153t278 57h380v-287h-380q-178 0 -304.5 -126.5t-126.5 -303.5q0 -178 126 -304t305 -126h237v268l-90 51h-139v287h213l366 -203h166z"
            />
    <glyph
                glyph-name="h"
                unicode="h"
                horiz-adv-x="1933"
                d="M1401 1434h287v-1434h-287v571h-670v-571h-287v1147h-239v287h526v-576h670v576z"
            />
    <glyph
                glyph-name="i"
                unicode="i"
                horiz-adv-x="1708"
                d="M1462 1147h-452v-862h452v-285h-1216v285h477v862h-477v287h1216v-287z"
            />
    <glyph
                glyph-name="j"
                unicode="j"
                horiz-adv-x="1609"
                d="M1364 1434v-895q0 -113 -44.5 -216.5t-119.5 -178.5t-178.5 -119.5t-216.5 -44.5q-114 0 -217.5 44.5t-178.5 119.5t-119 178.5t-44 216.5h286q0 -113 80 -193t193 -80q112 0 192 80t80 193v608h-334v287h621z"
            />
    <glyph
                glyph-name="k"
                unicode="k"
                horiz-adv-x="1695"
                d="M1450 1434v-381l-373 -336l373 -338v-379h-287v252l-356 321h-275v-573h-286v1434h286v-574h275l356 322v252h287z"
            />
    <glyph glyph-name="l" unicode="l" horiz-adv-x="1626" d="M1421 0v530h-286v-243h-603v1147h-286v-1434h1175z" />
    <glyph
                glyph-name="m"
                unicode="m"
                horiz-adv-x="2160"
                d="M1915 0v1434h-584l-264 -664l-227 664h-594v-1434h286v1147h103l283 -832h276l332 832h102v-1147h287z"
            />
    <glyph
                glyph-name="n"
                unicode="n"
                horiz-adv-x="1923"
                d="M459 -96l248 139l-175 315v789h103l645 -1147h397v1434h-286v-1045l-588 1045h-557v-1147z"
            />
    <glyph
                glyph-name="o"
                unicode="o"
                horiz-adv-x="1757"
                d="M877 1454q200 -1 369.5 -99.5t268.5 -268t99 -369.5t-98 -369t-266.5 -268t-368.5 -100q-150 1 -286.5 59.5t-235.5 157t-157.5 235t-58.5 285.5q0 150 58 286.5t156.5 235t234 156.5t285.5 59zM879 270q185 2 314.5 132.5t129.5 314.5q0 186 -129.5 316t-314.5 130
t-315 -130t-130 -316q0 -184 130 -314.5t315 -132.5z"
            />
    <glyph
                glyph-name="p"
                unicode="p"
                horiz-adv-x="1632"
                d="M1030 1434q190 0 324.5 -135t134.5 -324t-134.5 -324t-324.5 -135h-493v-516h-287l-4 1434h784zM1030 803q72 0 122 50.5t50 121.5t-50 121.5t-122 50.5h-498v-344h498z"
            />
    <glyph
                glyph-name="q"
                unicode="q"
                horiz-adv-x="2119"
                d="M1577 285h297v-285h-442v135q-199 -155 -449 -155q-150 1 -286 59.5t-235 157t-157.5 235t-58.5 285.5q0 201 98 370t266.5 267.5t368.5 99.5q200 -1 369.5 -99.5t268.5 -268t99 -369.5q0 -241 -139 -432zM981 270q185 2 314.5 132.5t129.5 314.5q0 186 -129.5 316
t-314.5 130t-314.5 -130t-129.5 -316q0 -184 129.5 -314.5t314.5 -132.5z"
            />
    <glyph
                glyph-name="r"
                unicode="r"
                horiz-adv-x="2007"
                d="M1468 287h293v-287h-442l-356 518h-232v-518h-287v1147h-239v287h1024q189 0 324 -135t135 -324q0 -169 -109.5 -296t-273.5 -155zM731 1147v-342h498q71 0 121.5 50t50.5 120q0 71 -50.5 121.5t-121.5 50.5h-498z"
            />
    <glyph
                glyph-name="s"
                unicode="s"
                horiz-adv-x="1787"
                d="M1126 860q172 -5 294 -131t122 -299q0 -178 -126 -304t-304 -126h-602l-264 188l166 234l190 -135h510q60 0 101.5 41.5t41.5 101.5q0 59 -41.5 101t-101.5 42h-377q-178 0 -304 126t-126 305q0 177 126 303.5t304 126.5h666v-287h-666q-60 0 -101.5 -42t-41.5 -101
q0 -60 41.5 -102t101.5 -42h391z"
            />
    <glyph
                glyph-name="t"
                unicode="t"
                horiz-adv-x="2027"
                d="M246 1434h1536v-553h-287v266h-338v-1147h-287v1147h-338v-266h-286v553z"
            />
    <glyph
                glyph-name="u"
                unicode="u"
                horiz-adv-x="1933"
                d="M1401 1434h287v-834q0 -168 -83.5 -311t-227 -226t-312.5 -83q-168 0 -311 83t-226.5 226t-83.5 311v547h-239v287h526v-834q0 -138 98 -236t236 -98t237 98t99 236v834z"
            />
    <glyph
                glyph-name="v"
                unicode="v"
                horiz-adv-x="1789"
                d="M225 1434v-357l516 -1077h308l516 1077v357h-287v-293l-383 -813l-383 813v293h-287z"
            />
    <glyph
                glyph-name="w"
                unicode="w"
                horiz-adv-x="2273"
                d="M1690 0l358 1085v349h-287v-304l-223 -675l-266 663h-271l-268 -663l-221 675v304h-287v-349l357 -1085h276l279 686l276 -686h277z"
            />
    <glyph
                glyph-name="x"
                unicode="x"
                horiz-adv-x="1886"
                d="M1640 1434v-408l-446 -309l446 -311v-406h-286v256l-412 285l-410 -285v-256h-286v406l446 311l-446 309v408h286v-258l410 -285l412 285v258h286z"
            />
    <glyph
                glyph-name="y"
                unicode="y"
                horiz-adv-x="1789"
                d="M1565 1008l-527 -428v-293h240v-287h-766v287h240v291l-527 458v398h287v-269l348 -303h70l348 283v289h287v-426z"
            />
    <glyph
                glyph-name="z"
                unicode="z"
                horiz-adv-x="1830"
                d="M1251 0l334 299l-192 215l-252 -227h-541l889 768v379h-1243v-527h286v240h625l-911 -789v-358h1005z"
            />
    <glyph
                glyph-name="braceleft"
                unicode="{"
                horiz-adv-x="761"
                d="M559 961l-280 -324h-3l3 -2l280 -324v-348h168v-246h-436v494l-234 262v326l234 262v495h436v-245h-168v-350z"
            />
    <glyph glyph-name="bar" unicode="|" horiz-adv-x="749" d="M246 -283v1839h258v-1839h-258z" />
    <glyph
                glyph-name="braceright"
                unicode="}"
                horiz-adv-x="761"
                d="M705 799v-326l-234 -262v-494h-436v246h168v348l280 324l2 2h-2l-280 324v350h-168v245h436v-495z"
            />
    <glyph
                glyph-name="asciitilde"
                unicode="~"
                horiz-adv-x="1490"
                d="M1245 510l-360 -68l-115 41l-72 27l-63 22l-72 27l-268 -47l-49 240l360 67l115 -41l72 -26l63 -23l72 -27l268 46z"
            />
    <glyph glyph-name="uni00A0" unicode="&#xa0;" horiz-adv-x="1024" />
    <glyph
                glyph-name="exclamdown"
                unicode="&#xa1;"
                horiz-adv-x="655"
                d="M150 918q0 74 50 124t124 50t124 -50t50 -124q0 -72 -50.5 -123.5t-123.5 -51.5t-123.5 51.5t-50.5 123.5zM389 616l96 -477v-501h-319v501l94 477h129z"
            />
    <glyph
                glyph-name="cent"
                unicode="&#xa2;"
                horiz-adv-x="1492"
                d="M918 213l186 168l143 -158l-248 -223h-133v-254h-188v262q-186 36 -309 182.5t-123 339.5q0 194 123 341.5t309 183.5v237h188v-229h133l248 -223l-143 -158l-186 168h-52v-637h52zM459 530q0 -104 61 -187t158 -116v607q-96 -31 -157.5 -115t-61.5 -189z"
            />
    <glyph
                glyph-name="sterling"
                unicode="&#xa3;"
                horiz-adv-x="1585"
                d="M815 426v-164h496v-262h-1000v262h207v164l-61 170h-211v246h135q-37 105 -37 192q0 190 139.5 305t372.5 115q318 0 483 -248l-225 -157q-56 73 -116 105t-134 32q-99 0 -153 -52.5t-54 -148.5q0 -61 29 -143h401v-246h-333z"
            />
    <glyph
                glyph-name="currency"
                unicode="&#xa4;"
                horiz-adv-x="1736"
                d="M1395 713q0 -152 -80 -281l176 -176l-166 -164l-174 176q-130 -84 -283 -84q-152 0 -282 84l-174 -176l-166 164l176 176q-82 132 -82 281q0 152 82 284l-176 177l166 163l176 -178q129 82 278 82q151 0 283 -82l176 178l166 -163l-178 -179q82 -132 82 -282zM868 428
q117 0 199 84t82 201q0 122 -81.5 203t-199.5 81q-119 0 -200.5 -81t-81.5 -203q0 -118 82 -201.5t200 -83.5z"
            />
    <glyph
                glyph-name="yen"
                unicode="&#xa5;"
                horiz-adv-x="1828"
                d="M1583 1008l-526 -428v-80h358v-191h-358v-119h358v-190h-1001v190h356v119h-356v191h356v75l-524 461v398h286v-269l349 -303h69l346 283v289h287v-426z"
            />
    <glyph
                glyph-name="brokenbar"
                unicode="&#xa6;"
                horiz-adv-x="749"
                d="M246 821v735h258v-735h-258zM246 -283v736h258v-736h-258z"
            />
    <glyph
                glyph-name="section"
                unicode="&#xa7;"
                horiz-adv-x="1392"
                d="M434 762q-89 51 -138.5 137t-49.5 191q0 146 108 245t264 99h310l219 -252l-176 -154l-152 168h-201q-57 0 -97 -33t-40 -82q0 -62 68 -100l543 -219v-252h-267v98zM958 360q89 -52 139 -137t50 -190q0 -146 -108.5 -245t-264.5 -99h-309l-219 252l176 153l151 -168h201
q57 0 97 33t40 82q0 62 -67 100l-543 219v252h266v-98z"
            />
    <glyph
                glyph-name="copyright"
                unicode="&#xa9;"
                horiz-adv-x="1961"
                d="M979 1454q200 -1 369.5 -99.5t268.5 -268t99 -369.5t-98 -369t-266.5 -268t-368.5 -100q-150 1 -286 59.5t-235 157t-157.5 235t-58.5 285.5q0 201 98 370t266.5 267.5t368.5 99.5zM981 129q119 1 227.5 48t186.5 125.5t124 187t46 227.5q0 160 -78 295.5t-212.5 214
t-293.5 78.5t-293.5 -78.5t-212.5 -214t-78 -295.5q0 -119 46 -227.5t124 -187t186.5 -125.5t227.5 -48zM563 715q0 171 118.5 290t291.5 119h172l192 -170l-112 -123l-144 130h-108q-102 0 -174 -72t-72 -174t72 -174t174 -72h108l144 131l112 -123l-192 -170h-172
q-171 0 -290.5 119.5t-119.5 288.5z"
            />
    <glyph
                glyph-name="guillemotleft"
                unicode="&#xab;"
                horiz-adv-x="1142"
                d="M299 555l2 -2l281 -324l-205 -172l-297 334v326l297 334l205 -172l-281 -324h-2zM793 555l2 -2l280 -324l-205 -172l-297 334v326l297 334l205 -172l-280 -324h-2z"
            />
    <glyph glyph-name="logicalnot" unicode="&#xac;" horiz-adv-x="1476" d="M983 160v346h-737v242h985v-588h-248z" />
    <glyph glyph-name="uni00AD" unicode="&#xad;" horiz-adv-x="825" d="M109 477v295h608v-295h-608z" />
    <glyph
                glyph-name="registered"
                unicode="&#xae;"
                horiz-adv-x="1169"
                d="M584 1454q175 -2 298.5 -125t123.5 -297q0 -115 -56 -212t-152.5 -154t-211.5 -58q-174 2 -298 126t-124 298t123 297t297 125zM586 694q138 2 236 100.5t98 237.5t-98 237.5t-236 98.5q-140 0 -238 -98t-98 -238q0 -139 98 -237.5t238 -100.5zM707 891h94v-94h-158
l-70 170h-86v-170h-94v469h256q63 0 106.5 -44t43.5 -106q0 -55 -35 -97.5t-88 -51.5zM487 1171v-110h162q25 0 41.5 16t16.5 39t-16.5 39t-41.5 16h-162z"
            />
    <glyph
                glyph-name="degree"
                unicode="&#xb0;"
                horiz-adv-x="962"
                d="M481 684q-162 0 -270.5 110t-108.5 275t108.5 275t270.5 110t270.5 -110t108.5 -275t-108.5 -275t-270.5 -110zM481 879q77 0 124.5 53.5t47.5 136.5t-47.5 137t-124.5 54t-124.5 -54t-47.5 -137t47.5 -136.5t124.5 -53.5z"
            />
    <glyph
                glyph-name="plusminus"
                unicode="&#xb1;"
                horiz-adv-x="1445"
                d="M592 377v342h-346v244h346v337h262v-337h346v-244h-346v-342h-262zM246 0v244h954v-244h-954z"
            />
    <glyph
                glyph-name="paragraph"
                unicode="&#xb6;"
                horiz-adv-x="1705"
                d="M678 537q-181 0 -306.5 131.5t-125.5 316.5q0 121 57 224.5t156.5 164t218.5 60.5h782v-217h-135v-1522h-223v1522h-201v-1522h-223v842z"
            />
    <glyph
                glyph-name="periodcentered"
                unicode="&#xb7;"
                horiz-adv-x="733"
                d="M541 621q0 -74 -50.5 -124.5t-123.5 -50.5t-123.5 50.5t-50.5 124.5q0 72 50.5 123t123.5 51t123.5 -51t50.5 -123z"
            />
    <glyph
                glyph-name="guillemotright"
                unicode="&#xbb;"
                horiz-adv-x="1142"
                d="M571 717v-326l-297 -334l-204 172l280 324l2 2h-2l-280 324l204 172zM768 1051l297 -334v-326l-297 -334l-205 172l281 324l2 2h-2l-281 324z"
            />
    <glyph
                glyph-name="questiondown"
                unicode="&#xbf;"
                horiz-adv-x="1146"
                d="M465 872q0 74 50.5 124.5t123.5 50.5t123.5 -50.5t50.5 -124.5q0 -72 -50.5 -123t-123.5 -51t-123.5 51t-50.5 123zM338 412q-106 -61 -166.5 -163t-60.5 -216q0 -188 132 -314.5t322 -126.5h273l268 308l-215 188l-184 -209h-142q-70 0 -119 43t-49 111q0 92 82 139
l318 170l-115 244z"
            />
    <glyph
                glyph-name="multiply"
                unicode="&#xd7;"
                horiz-adv-x="1396"
                d="M698 444l-284 -299l-168 168l284 299l-284 299l168 168l284 -299l285 299l168 -168l-285 -299l285 -299l-168 -168z"
            />
    <glyph
                glyph-name="divide"
                unicode="&#xf7;"
                horiz-adv-x="1443"
                d="M897 1024q0 -74 -50.5 -124t-123.5 -50t-123.5 50t-50.5 124q0 72 50.5 123t123.5 51t123.5 -51t50.5 -123zM246 506v242h952v-242h-952zM897 221q0 -73 -50.5 -123.5t-123.5 -50.5t-123.5 50.5t-50.5 123.5q0 72 50.5 123t123.5 51t123.5 -51t50.5 -123z"
            />
    <glyph
                glyph-name="florin"
                unicode="&#x192;"
                horiz-adv-x="1439"
                d="M246 -274l24 235h236l57 553h-217l25 246h217l55 514l166 160h385l-25 -236h-235l-45 -438h256l-21 -246h-260l-67 -629l-166 -159h-385z"
            />
    <glyph
                glyph-name="uni037E"
                unicode="&#x37e;"
                horiz-adv-x="675"
                d="M510 913q0 -73 -50 -123.5t-124 -50.5t-124 50.5t-50 123.5q0 72 50.5 123t123.5 51t123.5 -51t50.5 -123zM209 403l287 3v-232l-66 -217v-186h-285v229l64 217v186z"
            />
    <glyph
                glyph-name="anoteleia"
                unicode="&#x387;"
                horiz-adv-x="675"
                d="M512 913q0 -73 -50 -123.5t-124 -50.5t-124 50.5t-50 123.5q0 72 50.5 123t123.5 51t123.5 -51t50.5 -123z"
            />
    <glyph
                glyph-name="uni0E3F"
                unicode="&#xe3f;"
                horiz-adv-x="1732"
                d="M1260 831q103 -58 165 -161.5t62 -225.5q0 -184 -130 -314t-315 -130h-129v-205h-225v205h-442v1434h442v204h225v-206q163 -9 277.5 -129t114.5 -285q0 -102 -45 -187zM551 1141v-305h137v305h-137zM1026 1022q0 55 -30 85.5t-83 33.5v-305q53 3 83 33t30 85v68z
M532 287h156v315h-156v-315zM1042 287q66 0 112 45.5t46 111.5q0 65 -46 111.5t-112 46.5h-129v-315h129z"
            />
    <glyph glyph-name="endash" unicode="&#x2013;" horiz-adv-x="1204" d="M74 500v245h1056v-245h-1056z" />
    <glyph glyph-name="emdash" unicode="&#x2014;" horiz-adv-x="1597" d="M74 500v245h1450v-245h-1450z" />
    <glyph
                glyph-name="quoteleft"
                unicode="&#x2018;"
                horiz-adv-x="606"
                d="M416 963h-287v303l213 360l229 -143l-155 -271v-249z"
            />
    <glyph
                glyph-name="quoteright"
                unicode="&#x2019;"
                horiz-adv-x="606"
                d="M190 1585h287v-303l-213 -360l-229 143l155 270v250z"
            />
    <glyph
                glyph-name="quotesinglbase"
                unicode="&#x201a;"
                horiz-adv-x="614"
                d="M184 373h287v-303l-213 -361l-229 144l155 270v250z"
            />
    <glyph
                glyph-name="quotedblleft"
                unicode="&#x201c;"
                horiz-adv-x="1095"
                d="M416 963h-287v303l213 360l229 -143l-155 -271v-249zM897 963h-287v303l213 360l230 -143l-156 -271v-249z"
            />
    <glyph
                glyph-name="quotedblright"
                unicode="&#x201d;"
                horiz-adv-x="1095"
                d="M190 1585h287v-303l-213 -360l-229 143l155 270v250zM672 1585h286v-303l-213 -360l-229 143l156 270v250z"
            />
    <glyph
                glyph-name="quotedblbase"
                unicode="&#x201e;"
                horiz-adv-x="1103"
                d="M184 373h287v-303l-213 -361l-229 144l155 270v250zM666 373h286v-303l-213 -361l-229 144l156 270v250z"
            />
    <glyph
                glyph-name="dagger"
                unicode="&#x2020;"
                horiz-adv-x="1454"
                d="M598 -410v1246h-352v221h352v459h258v-459h352v-221h-352v-1246h-258z"
            />
    <glyph
                glyph-name="daggerdbl"
                unicode="&#x2021;"
                horiz-adv-x="1454"
                d="M598 -410v459h-352v221h352v566h-352v221h352v459h258v-459h352v-221h-352v-566h352v-221h-352v-459h-258z"
            />
    <glyph
                glyph-name="bullet"
                unicode="&#x2022;"
                horiz-adv-x="880"
                d="M768 612q0 -136 -95.5 -231.5t-232.5 -95.5q-136 0 -231.5 95.5t-95.5 231.5q0 137 95.5 232.5t231.5 95.5t232 -96t96 -232z"
            />
    <glyph
                glyph-name="ellipsis"
                unicode="&#x2026;"
                horiz-adv-x="1837"
                d="M492 164q0 -73 -50.5 -123.5t-124.5 -50.5q-73 0 -123.5 50t-50.5 124q0 72 50.5 123t123.5 51t124 -51t51 -123zM1092 164q0 -74 -50 -124t-124 -50t-124.5 50.5t-50.5 123.5q0 72 51 123t124 51t123.5 -51t50.5 -123zM1694 164q0 -74 -50 -124t-124 -50t-124 50
t-50 124q0 72 50.5 123t123.5 51t123.5 -51t50.5 -123z"
            />
    <glyph
                glyph-name="perthousand"
                unicode="&#x2030;"
                horiz-adv-x="3227"
                d="M651 643q-167 0 -286 119.5t-119 286.5t118 285t285 120q168 -2 287 -120t119 -285t-118.5 -286.5t-285.5 -119.5zM2058 1178h-258l-1095 -1178h-412v258h270l1084 1176h411v-256zM651 1186q-59 0 -98 -39t-39 -98q0 -57 39.5 -97.5t97.5 -40.5q57 0 96 40.5t39 97.5
q0 58 -39 97.5t-96 39.5zM1698 791q168 -2 286.5 -120.5t118.5 -285.5t-118 -286t-285 -119t-286.5 119t-119.5 286t118.5 285.5t285.5 120.5zM2576 791q168 -2 287 -120.5t119 -285.5t-118.5 -286t-285.5 -119t-286 119t-119 286t118 285.5t285 120.5zM1700 248q57 0 96 40
t39 97q0 58 -39 97.5t-96 39.5q-58 0 -97.5 -39t-39.5 -98q0 -57 39.5 -97t97.5 -40zM2578 248q57 0 96.5 40t39.5 97q0 58 -39.5 97.5t-96.5 39.5q-58 0 -97.5 -39t-39.5 -98q0 -57 39.5 -97t97.5 -40z"
            />
    <glyph glyph-name="prime" unicode="&#x2032;" horiz-adv-x="548" d="M74 709l127 721h274l-127 -721h-274z" />
    <glyph
                glyph-name="primedbl"
                unicode="&#x2033;"
                horiz-adv-x="1009"
                d="M74 709l127 721h274l-127 -721h-274zM535 709l127 721h274l-127 -721h-274z"
            />
    <glyph
                glyph-name="guilsinglleft"
                unicode="&#x2039;"
                horiz-adv-x="649"
                d="M299 555l2 -2l281 -324l-205 -172l-297 334v326l297 334l205 -172l-281 -324h-2z"
            />
    <glyph
                glyph-name="guilsinglright"
                unicode="&#x203a;"
                horiz-adv-x="649"
                d="M274 1051l297 -334v-326l-297 -334l-204 172l280 324l2 2h-2l-280 324z"
            />
    <glyph
                glyph-name="colonmonetary"
                unicode="&#x20a1;"
                horiz-adv-x="1703"
                d="M1042 313l224 201l192 -213l-334 -301h-110l-21 -205h-133l21 209q-54 6 -103 21l-22 -230h-133l26 277q-183 89 -293 262.5t-110 382.5q0 246 150.5 438.5t381.5 253.5l23 229h133l-21 -206q16 2 50 2h55l20 204h133l-22 -227l309 -278l-192 -213l-152 135zM807 315
q46 -18 100 -24l84 856h-28q-37 0 -78 -6zM532 717q0 -95 39.5 -179.5t108.5 -144.5l68 697q-99 -58 -157.5 -157.5t-58.5 -215.5z"
            />
    <glyph
                glyph-name="lira"
                unicode="&#x20a4;"
                horiz-adv-x="1583"
                d="M813 426v-164h496v-262h-1000v262h207v164h-270v184h209l-43 133h-166v185h108q-12 50 -12 106q0 190 139.5 305t372.5 115q318 0 483 -248l-225 -157q-56 73 -116 105t-134 32q-99 0 -153 -52.5t-54 -148.5q0 -21 4 -57h388v-185h-332l41 -133h291v-184h-234z"
            />
    <glyph
                glyph-name="uni20A6"
                unicode="&#x20a6;"
                horiz-adv-x="2291"
                d="M2046 791h-184v-142h184v-184h-184v-465h-398l-262 465h-485v-107l174 -315l-248 -139l-213 383v178h-184v184h184v142h-184v184h184v459h557l258 -459h330v459h287v-459h184v-184zM819 1147h-102v-172h198zM717 649h383l-80 142h-303v-142zM1350 791l225 -402v402h-225z
"
            />
    <glyph
                glyph-name="uni20A9"
                unicode="&#x20a9;"
                horiz-adv-x="2453"
                d="M2208 686h-201l-53 -158h254v-190h-318l-110 -338h-277l-276 686l-279 -686h-276l-103 309h-323v191h262l-62 186h-200v191h137l-68 208v349h287v-304l84 -253h307l99 241h270l96 -241h309l84 253v304h287v-349l-70 -208h140v-191zM823 455l95 231h-170zM1628 455l76 231
h-168z"
            />
    <glyph
                glyph-name="uni20AA"
                unicode="&#x20aa;"
                horiz-adv-x="2050"
                d="M657 1157l-135 -156v-1001h-276v1100l297 334h835v-1035h-276v758h-445zM1528 1434h276v-1100l-297 -334h-835v1034h276v-758h445l135 156v1002z"
            />
    <glyph
                glyph-name="Euro"
                unicode="&#x20ac;"
                horiz-adv-x="1832"
                d="M1143 287l252 227l192 -213l-334 -301h-290q-145 0 -278 57t-229 153t-153 229t-57 278t57 278t153 229t229 153t278 57h290l334 -301l-192 -213l-252 227h-180q-106 0 -199 -48.5t-152 -131.5h414v-185h-489q-5 -50 -5 -65q0 -14 5 -64h489v-184h-416q59 -84 152.5 -133
t200.5 -49h180z"
            />
    <glyph
                glyph-name="uni20AD"
                unicode="&#x20ad;"
                horiz-adv-x="1855"
                d="M739 0h-311v596h-182v246h182v588h311v-588h78l385 588h352l-413 -588h370v-246h-344l443 -596h-369l-420 596h-82v-596z"
            />
    <glyph
                glyph-name="uni20AE"
                unicode="&#x20ae;"
                horiz-adv-x="1576"
                d="M944 426v-426h-311v279l-246 -117v184l246 117v137l-246 -115v183l246 116v398h-387v252h1085v-252h-387v-250l248 117v-185l-248 -116v-138l248 117v-184z"
            />
    <glyph
                glyph-name="uni20B1"
                unicode="&#x20b1;"
                horiz-adv-x="1904"
                d="M1659 1057v-144h-164v-36q0 -34 -2 -50h166v-143h-186q-43 -178 -161.5 -276.5t-275.5 -98.5h-317v-309h-287l-2 684h-184v143h184v86h-184v144h184l-2 377h608q157 0 276 -100.5t163 -276.5h184zM715 1167v-110h461q-27 50 -64 80t-76 30h-321zM1221 877q0 24 -2 36
h-504v-86h504q2 16 2 50zM1036 575q39 0 75 29t63 80h-459v-109h321z"
            />
    <glyph
                glyph-name="uni20B2"
                unicode="&#x20b2;"
                horiz-adv-x="1961"
                d="M1550 690h166v-287h-229v-403h-524q-28 0 -78 4l-31 -172h-233l41 234q-187 88 -301.5 263.5t-114.5 387.5q0 137 50.5 263.5t137.5 221t207.5 156t255.5 74.5l29 165h233l-29 -163h213v-287h-262l-43 -254h146zM532 717q0 -107 48.5 -198.5t132.5 -151.5l133 763
q-137 -39 -225.5 -153.5t-88.5 -259.5zM1200 287v268l-90 51h-123l-55 -319h31h237z"
            />
    <glyph
                glyph-name="uni20B5"
                unicode="&#x20b5;"
                horiz-adv-x="1703"
                d="M1014 287l252 227l192 -213l-334 -301h-161q-28 0 -78 4l-31 -172h-233l41 234q-187 88 -301.5 263.5t-114.5 387.5q0 137 50.5 263.5t137.5 221t207.5 156t255.5 74.5l29 165h233l-29 -167l328 -297l-192 -213l-193 174l-141 -807h31h51zM532 717q0 -107 48.5 -198.5
t132.5 -151.5l133 763q-137 -39 -225.5 -153.5t-88.5 -259.5z"
            />
    <glyph
                glyph-name="uni20B8"
                unicode="&#x20b8;"
                horiz-adv-x="1576"
                d="M246 1219v215h1085v-215h-1085zM944 831v-831h-311v831h-387v216h1085v-216h-387z"
            />
    <glyph
                glyph-name="uni20BA"
                unicode="&#x20ba;"
                horiz-adv-x="1697"
                d="M1176 625h276v-291l-297 -334l-4 4v-4h-725v436l-180 -86v185l180 86v139l-180 -86v182l180 86v492h311v-344l310 147v-184l-310 -146v-139l310 145v-182l-310 -147v-308h303l136 156v193z"
            />
    <glyph
                glyph-name="uni20BD"
                unicode="&#x20bd;"
                horiz-adv-x="1957"
                d="M1253 1434q190 0 324.5 -135t134.5 -324q0 -183 -131 -290t-328 -107h-493v-148h493v-225h-493v-205h-287v205h-227v225h225v373l-2 631h784zM1253 803q72 0 122 50.5t50 121.5t-50 121.5t-122 50.5h-497v-344h497zM246 803h225v-225h-225v225z"
            />
    <glyph
                glyph-name="uni20BF"
                unicode="&#x20bf;"
                horiz-adv-x="1732"
                d="M1260 831q103 -58 165 -161.5t62 -225.5q0 -184 -130 -314t-315 -130h-26v-205h-225v205h-134v-205h-225v205h-186v1434h186v204h225v-204h134v204h225v-225q127 -40 208 -149t81 -246q0 -102 -45 -187zM532 1141v-305h369q59 0 92 30t33 88v68q0 58 -33 88.5t-92 30.5
h-369zM1042 287q66 0 112 45.5t46 111.5q0 65 -46 111.5t-112 46.5h-510v-315h510z"
            />
    <glyph
                glyph-name="uni2113"
                unicode="&#x2113;"
                horiz-adv-x="1548"
                d="M856 -25q-169 0 -282 96t-113 255v6l-84 -56l-131 211q79 44 200 131v498q0 112 28.5 195.5t80 132.5t117.5 72.5t147 23.5q177 0 274 -104t97 -287q0 -126 -52 -239t-148 -215t-257 -228v-84q0 -145 119 -145q59 0 102 44.5t103 166.5l246 -125q-132 -349 -447 -349z
M827 1272q-38 0 -66 -36t-28 -110v-352q178 161 178 350v21q0 63 -23.5 95t-60.5 32z"
            />
    <glyph
                glyph-name="uni2116"
                unicode="&#x2116;"
                horiz-adv-x="2830"
                d="M2204 1456q158 -2 269.5 -113.5t111.5 -269.5t-111.5 -270.5t-269.5 -112.5t-270.5 112.5t-112.5 270.5t111.5 269.5t271.5 113.5zM459 -96l248 139l-175 315v789h103l645 -1147h397v1434h-286v-1045l-588 1045h-557v-1147zM2204 942q55 0 93 38.5t38 94.5q0 55 -37.5 93
t-93.5 38t-93.5 -38t-37.5 -93q0 -56 38 -94.5t93 -38.5zM1835 369v225h741v-225h-741z"
            />
    <glyph
                glyph-name="trademark"
                unicode="&#x2122;"
                horiz-adv-x="1658"
                d="M123 1204v230h639v-230h-129v99h-125v-465h-129v465h-127v-99h-129zM1284 1434h252v-596h-129v467h-33l-137 -336h-115l-118 336h-33v-467h-129v596h258l84 -267z"
            />
    <glyph
                glyph-name="uni2126"
                unicode="&#x2126;"
                horiz-adv-x="1748"
                d="M246 0v274h416l-416 304v610l286 246h685l286 -246v-610l-416 -304h416v-274h-549v545l263 182v311l-136 117h-413l-136 -117v-311l263 -182v-545h-549z"
            />
    <glyph
                glyph-name="arrowleft"
                unicode="&#x2190;"
                horiz-adv-x="1945"
                d="M735 225l-489 490l489 489l164 -164l-205 -200h1006v-250h-1006l205 -201z"
            />
    <glyph
                glyph-name="arrowup"
                unicode="&#x2191;"
                horiz-adv-x="1470"
                d="M1225 965l-164 -164l-201 205v-1006h-250v1006l-200 -205l-164 164l489 489z"
            />
    <glyph
                glyph-name="arrowright"
                unicode="&#x2192;"
                horiz-adv-x="1945"
                d="M1210 225l-163 164l204 201h-1005v250h1005l-204 200l163 164l490 -489z"
            />
    <glyph
                glyph-name="arrowdown"
                unicode="&#x2193;"
                horiz-adv-x="1470"
                d="M1225 469l-490 -489l-489 489l164 164l200 -205v1006h250v-1006l201 205z"
            />
    <glyph
                glyph-name="arrowboth"
                unicode="&#x2194;"
                horiz-adv-x="2011"
                d="M735 1204l164 -164l-207 -200h627l-207 200l164 164l489 -489l-489 -490l-164 164l207 201h-627l207 -201l-164 -164l-489 490z"
            />
    <glyph
                glyph-name="arrowupdn"
                unicode="&#x2195;"
                horiz-adv-x="1470"
                d="M1225 965l-164 -164l-201 207v-586l201 207l164 -164l-490 -490l-489 490l164 164l200 -207v586l-200 -207l-164 164l489 489z"
            />
    <glyph
                glyph-name="uni2196"
                unicode="&#x2196;"
                horiz-adv-x="1517"
                d="M651 1044l621 -620v-418h-232v297l-563 563v-284h-231v692h692v-232z"
            />
    <glyph
                glyph-name="uni2197"
                unicode="&#x2197;"
                horiz-adv-x="1759"
                d="M821 1278h692v-692h-231l2 286l-620 -620h-418v231h297l563 564h-285v231z"
            />
    <glyph
                glyph-name="uni2198"
                unicode="&#x2198;"
                horiz-adv-x="1517"
                d="M1040 858h232v-692h-692v231l286 -2l-620 621v418h231v-297l563 -564v285z"
            />
    <glyph
                glyph-name="uni2199"
                unicode="&#x2199;"
                horiz-adv-x="1759"
                d="M1513 961h-296l-564 -564h285v-231h-692v692h231l-2 -287l621 621h417v-231z"
            />
    <glyph
                glyph-name="uni21A9"
                unicode="&#x21a9;"
                horiz-adv-x="1945"
                d="M735 1100l164 -164l-205 -201h531q82 0 136 42.5t54 127.5t-54 127.5t-136 42.5v234q97 0 182 -26.5t150.5 -77t104 -130t38.5 -178.5t-38.5 -178.5t-104 -130t-150.5 -77t-182 -26.5h-531l205 -200l-164 -164l-489 489z"
            />
    <glyph
                glyph-name="uni21AA"
                unicode="&#x21aa;"
                horiz-adv-x="1945"
                d="M1210 1100l490 -490l-490 -489l-163 164l204 200h-530q-97 0 -182 26.5t-150.5 77t-104 130t-38.5 178.5t38.5 178.5t104 130t150.5 77t182 26.5v-234q-82 0 -136.5 -42.5t-54.5 -127.5t54.5 -127.5t136.5 -42.5h530l-204 201z"
            />
    <glyph
                glyph-name="uni21B0"
                unicode="&#x21b0;"
                horiz-adv-x="1583"
                d="M735 1454l164 -164l-207 -200h645v-1090h-250v840h-395l207 -201l-164 -164l-489 490z"
            />
    <glyph
                glyph-name="uni21B1"
                unicode="&#x21b1;"
                horiz-adv-x="1583"
                d="M848 1454l489 -489l-489 -490l-164 164l207 201h-395v-840h-250v1090h645l-207 200z"
            />
    <glyph
                glyph-name="uni21B2"
                unicode="&#x21b2;"
                horiz-adv-x="1583"
                d="M735 -20l-489 489l489 489l164 -163l-207 -201h395v840h250v-1090h-645l207 -201z"
            />
    <glyph
                glyph-name="uni21B3"
                unicode="&#x21b3;"
                horiz-adv-x="1583"
                d="M848 -20l-164 163l207 201h-645v1090h250v-840h395l-207 201l164 163l489 -489z"
            />
    <glyph
                glyph-name="uni21B6"
                unicode="&#x21b6;"
                horiz-adv-x="2228"
                d="M246 565l164 164l200 -205v185q0 113 27 215t83 189t136.5 150.5t193 99.5t246.5 36t246.5 -36t193 -99.5t136.5 -150.5t83 -189t27 -215h-249q0 90 -26 170t-77 145t-137 103t-197 38t-197 -37.5t-137 -102t-76.5 -144.5t-25.5 -172v-185l201 205l164 -164l-490 -489z
"
            />
    <glyph
                glyph-name="uni21B7"
                unicode="&#x21b7;"
                horiz-adv-x="2228"
                d="M1982 565l-489 -489l-489 489l163 164l201 -205v185q0 92 -25.5 172t-76.5 144.5t-137 102t-197 37.5t-197 -38t-137 -103t-76.5 -145t-25.5 -170h-250q0 113 27 215t83 189t136.5 150.5t193 99.5t246.5 36t246.5 -36t193 -99.5t136.5 -150.5t83 -189t27 -215v-185
l201 205z"
            />
    <glyph
                glyph-name="uni21BA"
                unicode="&#x21ba;"
                horiz-adv-x="1888"
                d="M1612 1430v-232l-297 2l49 -45q49 -42 82.5 -75.5t73.5 -85t64.5 -102.5t41 -121t16.5 -148q0 -141 -55 -262.5t-149 -205t-221.5 -131t-270.5 -47.5q-189 0 -350.5 89.5t-255.5 243t-94 333.5q0 183 70.5 325t228.5 273l160 -174q-109 -88 -157 -189t-48 -235
q0 -180 130 -306t316 -126q196 0 319.5 114t123.5 298q0 104 -44 181.5t-139 172.5l-57 57l2 -297h-231v693h692z"
            />
    <glyph
                glyph-name="uni21BB"
                unicode="&#x21bb;"
                horiz-adv-x="1888"
                d="M276 1430h693v-693h-232l2 297l-57 -57q-95 -95 -138.5 -172t-43.5 -182q0 -184 123 -298t319 -114q186 0 316.5 126t130.5 306q0 134 -48 235t-157 189l159 174q158 -131 228.5 -273t70.5 -325q0 -180 -94 -333.5t-255.5 -243t-350.5 -89.5q-143 0 -270.5 47.5
t-221.5 131t-149 205t-55 262.5q0 78 16.5 148t41 121t64.5 102.5t73.5 85t82.5 75.5l49 45l-297 -2v232z"
            />
    <glyph
                glyph-name="uni21C4"
                unicode="&#x21c4;"
                horiz-adv-x="1945"
                d="M1210 561l-163 164l204 201h-1005v250h1005l-204 200l163 164l490 -489zM735 -111l-489 490l489 489l164 -163l-205 -201h1006v-250h-1006l205 -201z"
            />
    <glyph
                glyph-name="uni21C6"
                unicode="&#x21c6;"
                horiz-adv-x="1945"
                d="M735 561l-489 490l489 489l164 -164l-205 -200h1006v-250h-1006l205 -201zM1210 -111l-163 164l204 201h-1005v250h1005l-204 201l163 163l490 -489z"
            />
    <glyph
                glyph-name="partialdiff"
                unicode="&#x2202;"
                horiz-adv-x="1638"
                d="M700 0q-123 0 -227.5 60.5t-165.5 165.5t-61 229t61 229t165.5 166t227.5 61h181l-283 523h326l403 -746q66 -109 66 -233q0 -189 -134 -322t-323 -133h-236zM936 287q70 0 120 49.5t50 118.5q0 71 -50 120.5t-120 49.5h-236q-69 0 -118.5 -50t-49.5 -120
q0 -69 49.5 -118.5t118.5 -49.5h236z"
            />
    <glyph
                glyph-name="uni2206"
                unicode="&#x2206;"
                horiz-adv-x="1691"
                d="M246 248l407 1186h385l408 -1186v-248h-1200v248zM846 1151h-10l-273 -875h555z"
            />
    <glyph
                glyph-name="product"
                unicode="&#x220f;"
                horiz-adv-x="1880"
                d="M451 -410v1567h-205v277h1388v-277h-204v-1567h-312v1567h-356v-1567h-311z"
            />
    <glyph
                glyph-name="summation"
                unicode="&#x2211;"
                horiz-adv-x="1458"
                d="M1212 -410h-966v289l440 629v8l-440 629v289h966v-277h-630l397 -543v-204l-397 -543h630v-277z"
            />
    <glyph glyph-name="minus" unicode="&#x2212;" horiz-adv-x="1445" d="M246 506v242h954v-242h-954z" />
    <glyph
                glyph-name="radical"
                unicode="&#x221a;"
                horiz-adv-x="1660"
                d="M641 0l-240 821h-155v254h348l131 -463l92 -360h17l92 360l237 822h252l-414 -1434h-360z"
            />
    <glyph
                glyph-name="infinity"
                unicode="&#x221e;"
                horiz-adv-x="2072"
                d="M1411 1006q172 -2 294 -123.5t122 -292.5q0 -172 -121 -294t-293 -122q-122 0 -224.5 66t-154.5 174q-52 -106 -151.5 -170t-220.5 -64q-172 0 -294 122t-122 294t120.5 293t292.5 123q123 -1 225 -67t154 -173q52 104 152 168.5t221 65.5zM662 430q69 0 116 48.5
t47 117.5q0 70 -47 118t-116 48q-70 0 -118 -48t-48 -118q0 -69 48 -117.5t118 -48.5zM1413 424q69 0 116.5 48.5t47.5 117.5q0 70 -47.5 118t-116.5 48q-71 0 -118.5 -48t-47.5 -118q0 -69 48 -117.5t118 -48.5z"
            />
    <glyph
                glyph-name="integral"
                unicode="&#x222b;"
                horiz-adv-x="1253"
                d="M246 -410v236h235v1642l166 160h361v-235h-236v-1643l-166 -160h-360z"
            />
    <glyph
                glyph-name="approxequal"
                unicode="&#x2248;"
                horiz-adv-x="1622"
                d="M694 797l-268 -47l-49 239l360 68l115 -41l72 -27l63 -22l72 -27l268 45l49 -237l-360 -68l-115 41l-72 27l-63 22zM1059 463l268 45l49 -238l-360 -67l-115 41l-72 26l-63 23l-72 26l-268 -47l-49 240l360 68l115 -41l72 -27l63 -23z"
            />
    <glyph
                glyph-name="notequal"
                unicode="&#x2260;"
                horiz-adv-x="1445"
                d="M299 76l102 190h-155v238h282l125 241h-407v238h532l105 195h258l-105 -195h164v-238h-289l-127 -241h416v-238h-543l-102 -190h-256z"
            />
    <glyph
                glyph-name="lessequal"
                unicode="&#x2264;"
                horiz-adv-x="1300"
                d="M1055 1217h-334l-475 -340v-201l475 -342h334v237h-254l-309 205l309 203h254v238zM1053 238v-238h-807v238h807z"
            />
    <glyph
                glyph-name="greaterequal"
                unicode="&#x2265;"
                horiz-adv-x="1300"
                d="M246 1217v-238h254l309 -203l-309 -205h-254v-237h334l475 342v201l-475 340h-334zM248 238h807v-238h-807v238z"
            />
    <glyph
                glyph-name="lozenge"
                unicode="&#x25ca;"
                horiz-adv-x="1503"
                d="M666 0l-420 715l420 715h172l419 -715l-419 -715h-172zM758 293l231 422l-231 422h-13l-231 -422l231 -422h13z"
            />
    <glyph
                glyph-name="uni2713"
                unicode="&#x2713;"
                horiz-adv-x="1896"
                d="M1040 0h-376l-418 969l284 135l148 -379l168 -471h8l176 471l328 799l293 -117z"
            />
    <glyph
                glyph-name="uni274C"
                unicode="&#x274c;"
                horiz-adv-x="1978"
                d="M1518 -29l-529 529l-528 -529l-215 215l528 529l-528 528l215 215l528 -528l529 528l215 -215l-529 -528l529 -529z"
            />
    <glyph
                glyph-name="uni2B0E"
                unicode="&#x2b0e;"
                horiz-adv-x="1945"
                d="M1700 639l-490 -489l-489 489l164 164l198 -207l2 395h-839v250h1089v-645l201 207z"
            />
    <glyph
                glyph-name="uni2B0F"
                unicode="&#x2b0f;"
                horiz-adv-x="1945"
                d="M1700 815l-164 -164l-201 207v-645h-1089v250h839l-2 395l-198 -207l-164 164l489 490z"
            />
    <glyph
                glyph-name="uni2B10"
                unicode="&#x2b10;"
                horiz-adv-x="1945"
                d="M246 639l164 164l200 -207v645h1090v-250h-840l2 -395l199 207l164 -164l-490 -489z"
            />
    <glyph
                glyph-name="uni2B11"
                unicode="&#x2b11;"
                horiz-adv-x="1945"
                d="M246 815l489 490l490 -490l-164 -164l-199 207l-2 -395h840v-250h-1090v645l-200 -207z"
            />
    <glyph glyph-name="a.ss01" horiz-adv-x="1290" d="M983 471v-113h-676v113l215 604h248z" />
    <glyph glyph-name="i.ss01" horiz-adv-x="1177" d="M764 1075v-112l147 -471v-134h-497v111l-148 471v135h498z" />
    <glyph
                glyph-name="o.ss01"
                horiz-adv-x="1269"
                d="M1004 717q0 -154 -107.5 -261.5t-261.5 -107.5t-261.5 107.5t-107.5 261.5t107.5 261t261.5 107t261.5 -107t107.5 -261z"
            />
  </font>
</defs>
</svg>
